Рейтинг пользователей: / 1
ХудшийЛучший 

 

 

FauxReveur - Chill Set VI


FILE "FauxReveur_-_Chill_Set_VI.mp3" MP3
TRACK 01 AUDIO
TITLE "Somewhere"
PERFORMER "Within Temptation"
INDEX 01 00:00:00
TRACK 02 AUDIO
TITLE "Beautiful (Original Mix)"
PERFORMER "InfinityLoop"
INDEX 01 04:08:00
TRACK 03 AUDIO
TITLE "Moonlight Kiss"
PERFORMER "Blue Crisp"
INDEX 01 06:51:00
TRACK 04 AUDIO
TITLE "Winter (Original Mix)"
PERFORMER "Sunsplorer"
INDEX 01 10:30:00
TRACK 05 AUDIO
TITLE "In the Bottom of the Ocean"
PERFORMER "D Batistatos"
INDEX 01 14:50:00
TRACK 06 AUDIO
TITLE "Beast Within"
PERFORMER "Alexei Zakharov"
INDEX 01 20:42:00
TRACK 07 AUDIO

 


TITLE "The Truth (Reuben Halsey Chillout Mix)"
PERFORMER "Headstrong feat. Tiff Lacey"
INDEX 01 25:15:00
TRACK 08 AUDIO
TITLE "Nightflight (Original Mix)"
PERFORMER "S-Tune"
INDEX 01 29:55:00
TRACK 09 AUDIO
TITLE "Kojo No Tsuki feat. Aya (Ami Mix)"
PERFORMER "Sublunar"
INDEX 01 36:54:00
TRACK 10 AUDIO
TITLE "Smell of Innocent Spirit (Original Mix)"
PERFORMER "Synthetic Substance"
INDEX 01 44:08:50
TRACK 11 AUDIO
TITLE "Out There (5th Dimension - Christian Rusch Chillout mix)"
PERFORMER "Masters & Nickson"
INDEX 01 47:43:00
TRACK 12 AUDIO
TITLE "Dream Forever (Ambient Mix)"
PERFORMER "DJ Shiha"
INDEX 01 57:20:00
TRACK 13 AUDIO
TITLE "Silence (Michael Wood Remix)"
PERFORMER "Delerium"
INDEX 01 61:43:00
TRACK 14 AUDIO
TITLE "Trilogy (The Final Chapter"
PERFORMER "ATB"
INDEX 01 69:05:00
TRACK 15 AUDIO
TITLE "Just LIke a Man"
PERFORMER "Way Out West"
INDEX 01 74:07:00

 

 

Скачать: Torrent

{gcontent}

http://depositfiles.com

http://letitbit.net/download

{/gcontent}


Aliexpress . . .
Tags:     MP3      trance      музыка новинки      chillout      relax      lounge
Похожие материалы по теме
Интересная статья? Поделись ей с другими:

Добавить комментарий


Защитный код
Обновить

Мини чат

Сообщения чата

Partner Direct

Добро пожаловать

Найти на сайте

2

Warface, онлайн шутер - Полный отрыв

Реклама Direct Advert

Яндекс.Метрика